Vanilla Ice

Moderátor: Cheff

Odpovědět
Uživatelský avatar
GameZone
Pilot
Pilot
Příspěvky: 1617
Registrován: 03 bře 2011 07:18
Dal poděkování: 17 poděkování
Dostal poděkování: 21 poděkování

Vanilla Ice

Příspěvek od GameZone » 24 lis 2012 11:42

Vanilla Ice - 1990 - To The Extreme

Obrázek

Kód: Vybrat vše

http://download.hellshare.cz/vanilla-ice-1990-to-the-extreme-rar/10088838/
1.Ice Ice Baby
2.Yo Vanilla
3.Stop That Train
4.Hooked
5.Ice Is Workin' It
6.Life Is A Fantasy
7.Play That Funky Music
8.Dancin'
9.Go Ill
10.It's A Party
11.Juice To Get Loose Boy
12.Ice Cold
13.Rosta Man
14.I Love You
15.Havin' A Roni

Kód: Vybrat vše

General
Format                           : MPEG Audio

Overall bit rate                 : 320 Kbps
Album                            : To the Extreme
Album/Performer                  : Vanilla Ice
Performer                        : Vanilla ice
Composer                         : Vanilla Ice
Publisher                        : SBK Records
Genre                            : Rap & Hip-Hop
Recorded date                    : 1990
Writing library                  : LAME3.97 

Audio
Format                           : MPEG Audio
Format version                   : Version 1
Format profile                   : Layer 3
Mode                             : Joint stereo
Mode extension                   : MS Stereo
Duration                         : 5s 172ms
Bit rate mode                    : Constant
Bit rate                         : 320 Kbps
Channel(s)                       : 2 channels
Sampling rate                    : 44.1 KHz
Compression mode                 : Lossy
Stream size                      : 202 KiB (99%)
Writing library                  : LAME3.97 
Encoding settings                : -m j -V 4 -q 3 -lowpass 20.5
Naposledy upravil(a) GameZone dne 25 lis 2012 00:33, celkem upraveno 1 x.
Důvod: Příspěvek byl upraven
Uživatelský avatar
GameZone
Pilot
Pilot
Příspěvky: 1617
Registrován: 03 bře 2011 07:18
Dal poděkování: 17 poděkování
Dostal poděkování: 21 poděkování

Vanilla Ice - Cool As Ice (1991)

Příspěvek od GameZone » 24 lis 2012 20:08

Vanilla Ice - 1991 - Cool As Ice (Everybody Get Loose) (Ep)

Obrázek

Kód: Vybrat vše

http://download.hellshare.cz/vanilla-ice-1991-cool-as-ice-everybody-get-loose-ep-rar/10095328/
1. Vanilla Ice - 01 - Cool As Ice (Everybody Get Loose) Radio edit
2. Vanilla Ice - 02 - Cool As Ice (Everybody Get Loose) (Alternate Radio Version Featuring Dian Sorel)
3. Vanilla Ice - 03 - Cool As Ice (Everybody Get Loose)
4. Vanilla Ice - 04 - Cool As Ice (Naomi Gets Loose)
5. Vanilla Ice - 05 - Cool As Ice (Everybody Get Loose) (Instrumental)

Kód: Vybrat vše

General

Format                           : MPEG Audio
Overall bit rate                 : 320 Kbps
Album                            : Cool as ice (Everybody get Loose)
Performer                        : Vanilla ice
Genre                            : Hip-hop
Recorded date                    : 1991
Writing library                  : LAME3.97 

Audio
Format                           : MPEG Audio
Format version                   : Version 1
Format profile                   : Layer 3
Mode                             : Joint stereo
Bit rate mode                    : Constant
Bit rate                         : 320 Kbps
Channel(s)                       : 2 channels
Sampling rate                    : 44.1 KHz
Compression mode                 : Lossy
Stream size                      : 8.52 MiB (99%)
Writing library                  : LAME3.97 
Encoding settings                : -m j -V 4 -q 3 -lowpass 20.5
Uživatelský avatar
GameZone
Pilot
Pilot
Příspěvky: 1617
Registrován: 03 bře 2011 07:18
Dal poděkování: 17 poděkování
Dostal poděkování: 21 poděkování

Vanilla Ice - Ice Ice Baby (1990)

Příspěvek od GameZone » 25 lis 2012 00:05

Vanilla Ice - 1990 - Ice Ice Baby (Remix) (Ep)

Obrázek

Kód: Vybrat vše

http://download.hellshare.cz/vanilla-ice-1990-ice-ice-baby-remix-ep-rar/10098345/
Vanilla Ice - 01 - Ice Ice Baby (Miami Drop Mix)
Vanilla Ice - 02 - Ice Ice Baby (Acapella Mix)
Vanilla Ice - 03 - Ice Ice Baby (Miami Drop Mix Instrumental)
Vanilla Ice - 04 - Play That Funky Music (Acapella Mix)
Vanilla Ice - 05 - Ice Ice Baby (Miami Drop Mix Instrumental)

Kód: Vybrat vše

General

Format                           : MPEG Audio
Overall bit rate                 : 320 Kbps
Album                            : Ice ice Baby (Remix
Album/Performer                  : Vanilla Ice
Performer                        : Vanilla ice
Genre                            : Rap
Recorded date                    : 1990
Writing library                  : LAME3.97 

Audio
Format                           : MPEG Audio
Format version                   : Version 1
Format profile                   : Layer 3
Mode                             : Joint stereo
Mode extension                   : MS Stereo
Bit rate mode                    : Constant
Bit rate                         : 320 Kbps
Channel(s)                       : 2 channels
Sampling rate                    : 44.1 KHz
Compression mode                 : Lossy
Stream size                      : 6.08 MiB (98%)
Writing library                  : LAME3.97 
Encoding settings                : -m j -V 4 -q 3 -lowpass 20.5
Uživatelský avatar
GameZone
Pilot
Pilot
Příspěvky: 1617
Registrován: 03 bře 2011 07:18
Dal poděkování: 17 poděkování
Dostal poděkování: 21 poděkování

Vanilla Ice - Extremely (1991)

Příspěvek od GameZone » 25 lis 2012 00:20

Vanilla Ice - 1991 - Extremely Live

Obrázek

Kód: Vybrat vše

http://download.hellshare.cz/vanilla-ice-1991-extremely-live-rar/10098873/
01 Intro / Ice Is Working It 4:37
02 Hooked 3:36
03 Stop That Train 3:02
04 Rollin' In My 5.O 5:20
05 Ice Ice Baby (The Miami Drop Mix) 9:20
06 Havin' A Roni 4:02
07 The V.I.P. Posse One By One 8:52
08 Satisfaction 5:32
09 Life Is A Fantasy 2:28
10 Road To My Riches 4:18
11 I Love You 5:56
12 Move 1:39
13 I Like It 5:07
14 Play That Funky Music 4:59
15 Satisfaction (Studio Version) 3:45

Kód: Vybrat vše

General

Format                           : MPEG Audio
Overall bit rate                 : 320 Kbps
Album                            : Extremely Live
Album/Performer                  : Vanilla Ice
Performer                        : Vanilla ice
Genre                            : Rap
Recorded date                    : 1991
Writing library                  : LAME3.97 


Audio
Format                           : MPEG Audio
Format version                   : Version 1
Format profile                   : Layer 3
Mode                             : Joint stereo
Bit rate mode                    : Constant
Bit rate                         : 320 Kbps
Channel(s)                       : 2 channels
Sampling rate                    : 44.1 KHz
Compression mode                 : Lossy
Stream size                      : 8.24 MiB (99%)
Writing library                  : LAME3.97 
Encoding settings                : -m j -V 4 -q 3 -lowpass 20.5
Odpovědět

Zpět na „Hip-Hop, R&B“