50 cent

Moderátor: Cheff

Odpovědět
warup
Navigátor
Navigátor
Příspěvky: 1309
Registrován: 05 zář 2014 21:01
Dal poděkování: 2 poděkování
Dostal poděkování: 1 poděkování

50 cent

Příspěvek od warup » 21 bře 2015 11:34

50 Cent - Candy Shop Remix (Especial Edition)

Obrázek

info

Kód: Vybrat vše

http://en.wikipedia.org/wiki/The_Massacre
The album was re-released under the name The Massacre (Special Edition). It was re-released on September 6, 2005 with a remix of "Outta Control" featuring Mobb Deep. The re-release included a bonus DVD with music videos for all of the songs (except for Disco Inferno, Gunz Come Out & the Intro), and the trailer for the movie Get Rich or Die Tryin' and excludes track 22, the G-Unit remix of "Hate It or Love It", clearly due to the ongoing feud between 50 Cent and The Game and just leaves 21 songs. The re-release helped it re-climb to number two in the United States. The original version was also re-issued using the special edition tracklisting leaving out the dvd.
kvalita
General
Complete name : E:\up\50 Cent - Candy Shop Remix (Especial Edition).mp3
Format : MPEG Audio
File size : 4.31 MiB
Duration : 3mn 45s
Overall bit rate mode : Constant
Overall bit rate : 160 Kbps
Writing library : LAME3.98.4
duration : 225
starttime : 0
totalduration : 225
width : 640
height : 480
videodatarate : 136
audiodatarate : 65
totaldatarate : 207
framerate : 25
bytelength : 5847028
canseekontime : true
sourcedata : BADC20AA1HH1376496231331770

Audio
Format : MPEG Audio
Format version : Version 2
Format profile : Layer 3
Mode : Joint stereo
Mode extension : MS Stereo
Duration : 3mn 45s
Bit rate mode : Constant
Bit rate : 160 Kbps
Channel(s) : 2 channels
Sampling rate : 22.05 KHz
Compression mode : Lossy
Stream size : 4.31 MiB (100%)
Writing library : LAME3.98.4
download

Kód: Vybrat vše

http://www.uloz.to/x8jSkZDi/50-cent-candy-shop-remix-especial-edition-rar
muj upload
Obrázek

Kód: Vybrat vše

http://datoid.cz/?p=143827  
warup
Navigátor
Navigátor
Příspěvky: 1309
Registrován: 05 zář 2014 21:01
Dal poděkování: 2 poděkování
Dostal poděkování: 1 poděkování

50 cent

Příspěvek od warup » 21 bře 2015 11:38

50 Cent - If I Cant

Obrázek
"If I Can't" is a song by American hip-hop artist 50 Cent, released as the fourth and final single from his debut studio album, Get Rich or Die Tryin' (2003). The song is one of four on the album to be produced by hip-hop producer Dr. Dre, with co-production from frequent collaborator Mike Elizondo. Musically, the song describes how 50 Cent believes that "if I [he] can't do it, (referring to anything), it can't be done".

Upon its release, the song was a reasonable commercial success: However, the song did not match the commercial success of the album's three previous singles, only peaking at number 76 on the Billboard Hot 100 in the United States, where the three previous singles had all peaked within the top three, and also peaked in the upper regions of several national charts, most successfully in the United Kingdom, peaking at number ten after being released as a double A-side with the G-Unit single "Poppin' Them Thangs".
kvalita
General
Complete name : E:\up\50 Cent - If I Cant.mp3
Format : MPEG Audio
File size : 3.76 MiB
Duration : 3mn 17s
Overall bit rate mode : Constant
Overall bit rate : 160 Kbps
Writing library : LAME3.98.4
duration : 197
starttime : 0
totalduration : 197
width : 640
height : 480
videodatarate : 186
audiodatarate : 68
totaldatarate : 259
framerate : 25
bytelength : 6391413
canseekontime : true
sourcedata : BADC20A04HH1378402733911206

Audio
Format : MPEG Audio
Format version : Version 2
Format profile : Layer 3
Mode : Joint stereo
Mode extension : MS Stereo
Duration : 3mn 17s
Bit rate mode : Constant
Bit rate : 160 Kbps
Channel(s) : 2 channels
Sampling rate : 22.05 KHz
Compression mode : Lossy
Stream size : 3.76 MiB (100%)
Writing library : LAME3.98.4
download

Kód: Vybrat vše

http://www.uloz.to/x8NvfFZa/50-cent-if-i-cant-rar
muj upload
Obrázek

Kód: Vybrat vše

http://datoid.cz/?p=143827  
warup
Navigátor
Navigátor
Příspěvky: 1309
Registrován: 05 zář 2014 21:01
Dal poděkování: 2 poděkování
Dostal poděkování: 1 poděkování

50 cent

Příspěvek od warup » 21 bře 2015 11:43

50 Cent - Ill Kill You (Exclusive)

Obrázek

info

Kód: Vybrat vše

http://www.youtube.com/watch?v=y-7zibuQ33E
50 Cent - Ill Kill You (Exclusive) The Original Video
kvalita
General
Complete name : E:\up\50 Cent - Ill Kill You (Exclusive).mp3
Format : MPEG Audio
File size : 624 KiB
Duration : 31s 921ms
Overall bit rate mode : Constant
Overall bit rate : 160 Kbps
Writing library : LAME3.98.4
duration : 31
starttime : 0
totalduration : 31
width : 320
height : 240
videodatarate : 236
audiodatarate : 60
totaldatarate : 299
framerate : 25
bytelength : 1189949
canseekontime : true
sourcedata : BADC20A03HH1378403019902220

Audio
Format : MPEG Audio
Format version : Version 2
Format profile : Layer 3
Mode : Joint stereo
Mode extension : MS Stereo
Duration : 31s 947ms
Bit rate mode : Constant
Bit rate : 160 Kbps
Channel(s) : 2 channels
Sampling rate : 22.05 KHz
Compression mode : Lossy
Stream size : 623 KiB (100%)
Writing library : LAME3.98.4
download

Kód: Vybrat vše

http://www.uloz.to/xUiEDSYX/50-cent-ill-kill-you-exclusive-rar
muj upload
Obrázek

Kód: Vybrat vše

http://datoid.cz/?p=143827  
warup
Navigátor
Navigátor
Příspěvky: 1309
Registrován: 05 zář 2014 21:01
Dal poděkování: 2 poděkování
Dostal poděkování: 1 poděkování

50 cent

Příspěvek od warup » 21 bře 2015 11:49

50 Cent - Lose Yourself

Obrázek

info

Kód: Vybrat vše

http://www.youtube.com/watch?v=xNZKm8Vut28
Made this in like an hour, hope you enjoy
kvalita
General
Complete name : E:\up\50 Cent - Lose Yourself.mp3
Format : MPEG Audio
File size : 5.40 MiB
Duration : 4mn 43s
Overall bit rate mode : Constant
Overall bit rate : 160 Kbps
Writing library : LAME3.98.4
duration : 283
starttime : 0
totalduration : 283
width : 640
height : 480
videodatarate : 136
audiodatarate : 64
totaldatarate : 206
framerate : 25
bytelength : 7293108
canseekontime : true
sourcedata : BADC20A22HH1376495329213470

Audio
Format : MPEG Audio
Format version : Version 2
Format profile : Layer 3
Mode : Joint stereo
Mode extension : MS Stereo
Duration : 4mn 43s
Bit rate mode : Constant
Bit rate : 160 Kbps
Channel(s) : 2 channels
Sampling rate : 22.05 KHz
Compression mode : Lossy
Stream size : 5.40 MiB (100%)
Writing library : LAME3.98.4
download

Kód: Vybrat vše

http://www.uloz.to/xw2KvMZv/50-cent-lose-yourself-rar
muj upload
Obrázek

Kód: Vybrat vše

http://datoid.cz/?p=143827  
warup
Navigátor
Navigátor
Příspěvky: 1309
Registrován: 05 zář 2014 21:01
Dal poděkování: 2 poděkování
Dostal poděkování: 1 poděkování

50 cent

Příspěvek od warup » 21 bře 2015 11:55

50 Cent Ft Akon - Ill Still Kill

Obrázek

info

Kód: Vybrat vše

http://en.wikipedia.org/wiki/I'll_Still_Kill
"I'll Still Kill" (edited for radio as "I Still Will")[2] is a song by American hip hop recording artist 50 Cent, released as the fifth single from his third album Curtis (2007). The song, which was produced by DJ Khalil, features guest vocals from Senegalese-American singer Akon.[3] The single officially hit airwaves on November 6, 2007.[4] The song peaked at number 95 on the US Billboard Hot 100 chart.
kvalita
General
Complete name : D:\hudba\50 Cent Ft Akon - Ill Still Kill.mp3
Format : MPEG Audio
File size : 4.28 MiB
Duration : 3mn 44s
Overall bit rate mode : Constant
Overall bit rate : 160 Kbps
Writing library : LAME3.98.4
duration : 224
starttime : 0
totalduration : 224
width : 640
height : 480
videodatarate : 164
audiodatarate : 69
totaldatarate : 239
framerate : 25
bytelength : 6699963
canseekontime : true
sourcedata : BADC20A03HH1376495577488418

Audio
Format : MPEG Audio
Format version : Version 2
Format profile : Layer 3
Mode : Joint stereo
Mode extension : MS Stereo
Duration : 3mn 44s
Bit rate mode : Constant
Bit rate : 160 Kbps
Channel(s) : 2 channels
Sampling rate : 22.05 KHz
Compression mode : Lossy
Stream size : 4.28 MiB (100%)
Writing library : LAME3.98.4
download

Kód: Vybrat vše

http://www.uloz.to/xkkZrWdf/50-cent-ft-akon-ill-still-kill-rar
muj upload
Obrázek

Kód: Vybrat vše

http://datoid.cz/?p=143827  
warup
Navigátor
Navigátor
Příspěvky: 1309
Registrován: 05 zář 2014 21:01
Dal poděkování: 2 poděkování
Dostal poděkování: 1 poděkování

50 cent

Příspěvek od warup » 21 bře 2015 12:01

50 Cent Ft. Eminem - Patiently Waiting

Obrázek

info

Kód: Vybrat vše

http://www.dailymotion.com/video/xo9ms5_50-cent-ft-eminem-patiently-waiting-remix-new-2012_music
youtube link: http://www.youtube.com/watch?v=gghAW9nbGnU

Patiently Waiting [New Version]
kvalita
General
Complete name : E:\up\50 Cent Ft. Eminem - Patiently Waiting.mp3
Format : MPEG Audio
File size : 5.52 MiB
Duration : 4mn 49s
Overall bit rate mode : Constant
Overall bit rate : 160 Kbps
Writing library : LAME3.98.4
duration : 289
starttime : 0
totalduration : 289
width : 640
height : 480
videodatarate : 191
audiodatarate : 65
totaldatarate : 262
framerate : 25
bytelength : 9472104
canseekontime : true
sourcedata : BADC20A84HH1378402482898028

Audio
Format : MPEG Audio
Format version : Version 2
Format profile : Layer 3
Mode : Joint stereo
Mode extension : MS Stereo
Duration : 4mn 49s
Bit rate mode : Constant
Bit rate : 160 Kbps
Channel(s) : 2 channels
Sampling rate : 22.05 KHz
Compression mode : Lossy
Stream size : 5.52 MiB (100%)
Writing library : LAME3.98.4
download

Kód: Vybrat vše

http://www.uloz.to/xNRuQNpk/50-cent-ft-eminem-patiently-waiting-rar
muj upload
Obrázek

Kód: Vybrat vše

http://datoid.cz/?p=143827  
Odpovědět

Zpět na „Hip-Hop, R&B“