The Wire / Špína Baltimoru / EN / 2002

Moderátor: KlopuX

Odpovědět
Uživatelský avatar
romzes
Provider Bronze
Provider Bronze
Příspěvky: 429
Registrován: 03 čer 2007 12:17
Bydliště: Praha 8
Dostal poděkování: 27 poděkování
Kontaktovat uživatele:

The Wire / Špína Baltimoru / EN / 2002

Příspěvek od romzes » 10 pro 2014 21:52

The Wire / EN / CZ sub
Release : neznámý

ObrázekObrázek

Seriál má tyto, nebo podobné atributy :

Kód: Vybrat vše

The.Wire.S01.The.Target.H.264.mkv
   General
      Unique ID : 195973874313598919228225829685976165694 (0x936F31FE4048CF5AA5F8C5B8A7C8ED3E)
      Complete name : The.Wire.S01E01.The.Target.H.264.mkv
      Format : Matroska
      Format version : Version 4 / Version 2
      File size : 2.00 GiB
      Duration : 1h 2mn
      Overall bit rate : 4 615 Kbps
      Encoded date : UTC 2014-12-04 15:48:00
      Writing application : mkvmerge v7.3.0 ('Nouages') 64bit built on Oct 22 2014 18:53:34
      Writing library : libebml v1.3.0 + libmatroska v1.4.1
      DURATION : 00:59:58.674000000
      NUMBER_OF_FRAMES : 884
      NUMBER_OF_BYTES : 37178
      _STATISTICS_WRITING_APP : mkvmerge v7.3.0 ('Nouages') 64bit built on Oct 22 2014 18:53:34
      _STATISTICS_WRITING_DATE_UTC : 2014-12-04 15:48:00
      _STATISTICS_TAGS : BPS DURATION NUMBER_OF_FRAMES NUMBER_OF_BYTES
   Video #1
      ID : 1
      Format : AVC
      Format/Info : Advanced Video Codec
      Format profile : High@L4.1
      Format settings, CABAC : Yes
      Format settings, ReFrames : 2 frames
      Codec ID : V_MPEG4/ISO/AVC
      Duration : 1h 2mn
      Bit rate : 4 076 Kbps
      Width : 640 pixels
      Height : 480 pixels
      Display aspect ratio : 4:3
      Frame rate mode : Constant
      Frame rate : 23.976 fps
      Color space : YUV
      Chroma subsampling : 4:2:0
      Bit depth : 8 bits
      Scan type : Progressive
      Bits/(Pixel*Frame) : 0.553
      Stream size : 1.77 GiB (88%)
      Writing library : x264 core
      Default : Yes
      Forced : No
      Color primaries : BT.601 NTSC
      Transfer characteristics : BT.709
      Matrix coefficients : BT.601
   Audio #2
      ID : 2
      Format : AC-3
      Format/Info : Audio Coding 3
      Mode extension : CM (complete main)
      Format settings, Endianness : Big
      Codec ID : A_AC3
      Duration : 1h 2mn
      Bit rate mode : Constant
      Bit rate : 448 Kbps
      Channel(s) : 6 channels
      Channel positions : Front: L C R, Side: L R, LFE
      Sampling rate : 48.0 KHz
      Bit depth : 16 bits
      Compression mode : Lossy
      Stream size : 199 MiB (10%)
      Language : English
      Default : Yes
      Forced : No
   Text #3
      ID : 3
      Format : VobSub
      Muxing mode : zlib
      Codec ID : S_VOBSUB
      Codec ID/Info : The same subtitle format used on DVDs
      Language : English
      Default : No
      Forced : No
   Text #4
      ID : 4
      Format : UTF-8
      Codec ID : S_TEXT/UTF8
      Codec ID/Info : UTF-8 Plain Text
      Language : Czech
      Default : Yes
      Forced : Yes
Obrázek

.:: SERIE 01 ::.

Episode 01 - 13

Kód: Vybrat vše

http://www.fastshare.cz/3992788/the.wire.s01e01.the.target.h.264.mkv
http://www.fastshare.cz/3992841/the.wire.s01e02.the.detail.h.264.mkv
http://www.fastshare.cz/3992938/the.wire.s01e03.the.buys.h.264.mkv
http://www.fastshare.cz/3993033/the.wire.s01e04.old.cases.h264.mkv
http://www.fastshare.cz/3993125/the.wire.s01e05.the.pager.h264.mkv
http://www.fastshare.cz/3993175/the.wire.s01e06.the.wire.h264.mkv
http://www.fastshare.cz/3993256/the.wire.s01e07.one.arrest.h264.mkv
http://www.fastshare.cz/3993316/the.wire.s01e08.lessons.h264.mkv
http://www.fastshare.cz/3993376/the.wire.s01e09.game.day.h264.mkv
http://www.fastshare.cz/3993449/the.wire.s01e10.the.cost.h264.mkv
http://www.fastshare.cz/3993516/the.wire.s01e11.the.hunt.h264.mkv
http://www.fastshare.cz/3993583/the.wire.s01e12.cleaning.up.h264.mkv
http://www.fastshare.cz/3993648/the.wire.s01e13.sentencing.h264.mkv
Obrázek

.:: SERIE 02 ::.

Episode 01 - 12

Kód: Vybrat vše

http://www.fastshare.cz/3993777/the.wire.s02e01.mkv
http://www.fastshare.cz/3993866/the.wire.s02e02.mkv
http://www.fastshare.cz/3993976/the.wire.s02e03.mkv
http://www.fastshare.cz/3994134/the.wire.s02e04.mkv
http://www.fastshare.cz/3994245/the.wire.s02e05.mkv
http://www.fastshare.cz/3994361/the.wire.s02e06.mkv
http://www.fastshare.cz/3994422/the.wire.s02e07.mkv
http://www.fastshare.cz/3994467/the.wire.s02e08.mkv
http://www.fastshare.cz/3994518/the-wire-s02e09.mkv
http://www.fastshare.cz/3994595/the-wire-s02e10.mkv
http://www.fastshare.cz/3994672/the-wire-s02e11.mkv
http://www.fastshare.cz/3994755/the-wire-s02e12.mkv
Obrázek

.:: SERIE 03 ::.

Episode 01 - 12

Kód: Vybrat vše

http://www.fastshare.cz/3995610/the.wire.s03e01-1-.mkv
http://www.fastshare.cz/3995644/the.wire.s03e02-1-.mkv
http://www.fastshare.cz/3995687/the.wire.s03e03-1-.mkv
http://www.fastshare.cz/3995717/the.wire.s03e04-1-.mkv
http://www.fastshare.cz/3995753/the.wire.s03e05-1-.mkv
http://www.fastshare.cz/3995795/the.wire.s03e06-1-.mkv
http://www.fastshare.cz/3995832/the.wire.s03e07-1-.mkv
http://www.fastshare.cz/3995872/the.wire.s03e08-1-.mkv
http://www.fastshare.cz/3995924/the.wire.s03e09-1-.mkv
http://www.fastshare.cz/3995979/the.wire.s03e10-1-.mkv
http://www.fastshare.cz/3996044/the.wire.s03e11-1-.mkv
http://www.fastshare.cz/3996100/the.wire.s03e12-1-.mkv
Obrázek

.:: SERIE 04 ::.

Episode 01 - 13

Kód: Vybrat vše

http://www.fastshare.cz/3997205/the.wire.s04e01-1-.mkv
http://www.fastshare.cz/3998169/the.wire.s04e02-1-.mkv
http://www.fastshare.cz/3998213/the.wire.s04e03-1-.mkv
http://www.fastshare.cz/3998263/the.wire.s04e04-1-.mkv
http://www.fastshare.cz/3998384/the.wire.s04e05-1-.mkv
http://www.fastshare.cz/3998475/the.wire.s04e06-1-.mkv
http://www.fastshare.cz/3998562/the.wire.s04e07-1-.mkv
http://www.fastshare.cz/3998650/the.wire.s04e08-1-.mkv
http://www.fastshare.cz/3998750/the.wire.s04e09-1-.mkv
http://www.fastshare.cz/3998785/the.wire.s04e10-1-.mkv
http://www.fastshare.cz/3998849/the.wire.s04e11-1-.mkv
http://www.fastshare.cz/3998929/the.wire.s04e12-1-.mkv
http://www.fastshare.cz/3999000/the.wire.s04e13-1-.mkv
Obrázek

.:: SERIE 05 ::.

Episode 01 - 10

Kód: Vybrat vše

http://www.fastshare.cz/3999015/the.wire.s05e01-1-.mkv
http://www.fastshare.cz/3999093/the.wire.s05e02-1-.mkv
http://www.fastshare.cz/3999166/the.wire.s05e03-1-.mkv
http://www.fastshare.cz/3999225/the.wire.s05e04-1-.mkv
http://www.fastshare.cz/3999240/the.wire.s05e05-1-.mkv
http://www.fastshare.cz/3999317/the.wire.s05e06-1-.mkv
http://www.fastshare.cz/3999334/the.wire.s05e07-1-.mkv
http://www.fastshare.cz/3999354/the.wire.s05e08-1-.mkv
http://www.fastshare.cz/3999369/the.wire.s05e09-1-.mkv
http://www.fastshare.cz/3999388/the.wire.s05e10-1-.mkv

*** Bez hesla
*** Titulky vloženy do obrazu
*** Vložen záznam pro opravu dat
Intel Core i7 920 2.66 @ 3.8
Gigabyte GA-EX58-UD3R
Sapphire HD6950 2GB @ HD6970
4x2 GB DDR3-1333 Kingston, Micron
HDD 3,6 TB
AMD Eyefinity Acer 3 x 22"


Obrázek

Obrázek
Odpovědět

Zpět na „Seriály“