Triumf vůle/Triumph des Willens(1935)

Moderátor: KlopuX

Odpovědět
Fritz88
Kachna
Kachna
Příspěvky: 13
Registrován: 11 úno 2009 16:38
Dostal poděkování: 1 poděkování

Triumf vůle/Triumph des Willens(1935)

Příspěvek od Fritz88 » 11 bře 2010 16:35

Triumf vůle/Triumph des Willens(1935)

Obrázek

DVD 5
Menu / no
Bonus / no
Language / Germany
Subtitles / Czech
Size 4.21GB

Info:

Kód: Vybrat vše

http://www.csfd.cz/film/99752-triumf-vule-vitezstvi-vule-triumph-des-willens/ 
Video
ID : 224 (0xE0)
Format : MPEG Video
Format version : Version 2
Format profile : Main@Main
Format settings, Matrix : Default
Duration : 26mn 12s
Bit rate mode : Variable
Bit rate : 5 055 Kbps
Nominal bit rate : 8 308 Kbps
Width : 720 pixels
Height : 576 pixels
Display aspect ratio : 4:3
Frame rate : 24.000 fps
Standard : PAL
Colorimetry : 4:2:0
Scan type : Progressive
Scan order : 2:2:2:2:2:2:2:2:2:2:2:3 Pulldown
Bits/(Pixel*Frame) : 0.508
Stream size : 947 MiB (93%)

Audio
ID : 128 (0x80)
Format : AC-3
Format/Info : Audio Coding 3
Duration : 26mn 12s
Bit rate mode : Constant
Bit rate : 192 Kbps
Channel(s) : 1 channel
Channel positions : C
Sampling rate : 48.0 KHz
Stream size : 36.0 MiB (4%)

Text
ID : 32 (0x20)
Format : RLE
Format/Info : Run-length encoding

Download:
Rapidshare: 44x100MB,1x11MB

Kód: Vybrat vše

http://rapidshare.com/files/361429491/tri_vu.part01.rar
http://rapidshare.com/files/361433151/tri_vu.part02.rar
http://rapidshare.com/files/361436722/tri_vu.part03.rar
http://rapidshare.com/files/361440442/tri_vu.part04.rar
http://rapidshare.com/files/361444144/tri_vu.part05.rar
http://rapidshare.com/files/361447861/tri_vu.part06.rar
http://rapidshare.com/files/361451423/tri_vu.part07.rar
http://rapidshare.com/files/361455182/tri_vu.part08.rar
http://rapidshare.com/files/361459042/tri_vu.part09.rar
http://rapidshare.com/files/361462755/tri_vu.part10.rar
http://rapidshare.com/files/361466557/tri_vu.part11.rar
http://rapidshare.com/files/361470232/tri_vu.part12.rar
http://rapidshare.com/files/361473859/tri_vu.part13.rar
http://rapidshare.com/files/361477437/tri_vu.part14.rar
http://rapidshare.com/files/361481073/tri_vu.part15.rar
http://rapidshare.com/files/361484639/tri_vu.part16.rar
http://rapidshare.com/files/361488393/tri_vu.part17.rar
http://rapidshare.com/files/361492291/tri_vu.part18.rar
http://rapidshare.com/files/361496495/tri_vu.part19.rar
http://rapidshare.com/files/361500978/tri_vu.part20.rar
http://rapidshare.com/files/361505420/tri_vu.part21.rar
http://rapidshare.com/files/361510000/tri_vu.part22.rar
http://rapidshare.com/files/361514623/tri_vu.part23.rar
http://rapidshare.com/files/361518949/tri_vu.part24.rar
http://rapidshare.com/files/361792556/tri_vu.part25.rar
http://rapidshare.com/files/361805044/tri_vu.part26.rar
http://rapidshare.com/files/361808491/tri_vu.part27.rar
http://rapidshare.com/files/361812309/tri_vu.part28.rar
http://rapidshare.com/files/361816215/tri_vu.part29.rar
http://rapidshare.com/files/361820104/tri_vu.part30.rar
http://rapidshare.com/files/361823598/tri_vu.part31.rar
http://rapidshare.com/files/361827017/tri_vu.part32.rar
http://rapidshare.com/files/361830627/tri_vu.part33.rar
http://rapidshare.com/files/361834593/tri_vu.part34.rar
http://rapidshare.com/files/361838387/tri_vu.part35.rar
http://rapidshare.com/files/361842173/tri_vu.part36.rar
http://rapidshare.com/files/361846073/tri_vu.part37.rar
http://rapidshare.com/files/361850048/tri_vu.part38.rar
http://rapidshare.com/files/361854005/tri_vu.part39.rar
http://rapidshare.com/files/361857909/tri_vu.part40.rar
http://rapidshare.com/files/361861602/tri_vu.part41.rar
http://rapidshare.com/files/361865217/tri_vu.part42.rar
http://rapidshare.com/files/361797908/tri_vu.part43.rar
http://rapidshare.com/files/361801319/tri_vu.part44.rar
http://rapidshare.com/files/361801708/tri_vu.part45.rar
Odpovědět

Zpět na „Dokumenty“