Michael Jackson: Život legendy/Michael Jackson:The...(2011)

Moderátor: KlopuX

Odpovědět
Uživatelský avatar
icathan
Technik
Technik
Příspěvky: 415
Registrován: 16 srp 2008 21:13
Dostal poděkování: 24 poděkování

Michael Jackson: Život legendy/Michael Jackson:The...(2011)

Příspěvek od icathan » 08 lis 2011 13:33

Michael Jackson: Život legendy / Michael Jackson: The Life of an Icon (2011) DVD9, DVD5
M.J.the.life.of.icon.BRR.DVDR.CZsub-icathan

Obrázek

Dokumentární
USA, 2011, 155 min.


Hrají:Michael Jackson
Dosud nepublikované záběry a exkluzivní rozhovory s matkou Michaela a jeho sourozenci Titem a Rebbie zachycují všechny vzestupy, ale i pády krále popu. O jeho neobyčejných životních osudech vypráví ti, kteří ho znali nejlépe. Producent David Gest uvádí celovečerní portrét svého nejlepšího přítele Michaela Jacksona, na kterého nahlíží očima rodinných příslušníků, přátel a hudebních legend včetně Smokey Robinsona, Dionne Warwick, Nicka Ashforda, Valerie Simpson a spousty dalších. (oficiální text distributora)

Kód: Vybrat vše

http://www.csfd.cz/film/304575-michael-jackson-zivot-legendy/
Obrázek Obrázek Obrázek Obrázek

Obrázek Obrázek Obrázek Obrázek


DVD9
Menu - ne
Bonus - ne
Jazyk - 5.1 ENG
Titulky - CZECH, ENG
Rozlišení - 720x576
Formát - PAL (25 Fps)
Poměr stran - 16:9
Video bitrate - 5 683 Kbps
Zdroj - blu-ray
Velikost - 7,26 GB - DVD9

Kód: Vybrat vše

M.J.the.life.of.icon.BRR.DVD9.CZsub-icathan\VIDEO_TS\VTS_01_1.VOB
      Format : MPEG-PS
      File size : 1 024 MiB
      Duration : 22mn 25s
      Overall bit rate : 6 384 Kbps
   Video #224
      ID : 224 (0xE0)
      Format : MPEG Video
      Format version : Version 2
      Format profile : Main@Main
      Format settings, Matrix : Default
      Duration : 22mn 25s
      Bit rate mode : Variable
      Bit rate : 5 683 Kbps
      Nominal bit rate : 8 776 Kbps
      Width : 720 pixels
      Height : 576 pixels
      Display aspect ratio : 16:9
      Frame rate : 24.000 fps
      Standard : PAL
      Colorimetry : 4:2:0
      Scan type : Progressive
      Scan order : 2:2:2:2:2:2:2:2:2:2:2:3 Pulldown
      Bits/(Pixel*Frame) : 0.571
      Stream size : 911 MiB (89%)
   Audio #128
      ID : 128 (0x80)
      Format : AC-3
      Format/Info : Audio Coding 3
      Duration : 22mn 25s
      Bit rate mode : Constant
      Bit rate : 448 Kbps
      Channel(s) : 6 channels
      Channel positions : Front: L C R, Surround: L R, LFE
      Sampling rate : 48.0 KHz
      Stream size : 71.8 MiB (7%)

Kód: Vybrat vše

http://share-rapid.com/stahuj/h080oj64
http://share-rapid.com/stahuj/mfc3ss7m
http://share-rapid.com/stahuj/r5j95s87
http://share-rapid.com/stahuj/t82ic16e
http://share-rapid.com/stahuj/f87773m3
http://share-rapid.com/stahuj/ve4bghzs
http://share-rapid.com/stahuj/y7va1ohm
http://share-rapid.com/stahuj/cf6ip562

Kód: Vybrat vše

http://download.hellshare.com/m-j-the-life-of-icon-brr-dvd9-czsub-icathan-part1-rar/3989918/
http://download.hellshare.com/m-j-the-life-of-icon-brr-dvd9-czsub-icathan-part2-rar/3989959/
http://download.hellshare.com/m-j-the-life-of-icon-brr-dvd9-czsub-icathan-part3-rar/3990005/
http://download.hellshare.com/m-j-the-life-of-icon-brr-dvd9-czsub-icathan-part4-rar/3990051/
http://download.hellshare.com/m-j-the-life-of-icon-brr-dvd9-czsub-icathan-part5-rar/3990096/
http://download.hellshare.com/m-j-the-life-of-icon-brr-dvd9-czsub-icathan-part6-rar/3990134/
http://download.hellshare.com/m-j-the-life-of-icon-brr-dvd9-czsub-icathan-part7-rar/3990183/
http://download.hellshare.com/m-j-the-life-of-icon-brr-dvd9-czsub-icathan-part8-rar/3990186/

HESLO

Kód: Vybrat vše

icathan

DVD5
Menu - ne
Bonus - ne
Jazyk - 5.1 ENG
Titulky - CZECH, ENG
Rozlišení - 720x576
Formát - PAL (25 Fps)
Poměr stran - 16:9
Video bitrate - 3 331 Kbps
Zdroj - blu-ray
Komprese - 57%
Velikost - 4,36 GB - DVD5

Kód: Vybrat vše

C:\CloneDVDTemp\M.J.the.life.of.icon.BRR.DVD5.CZsub-icathan\VIDEO_TS\VTS_01_1.VOB
   General
      Complete name : C:\CloneDVDTemp\M.J.the.life.of.icon.BRR.DVD5.CZsub-icathan\VIDEO_TS\VTS_01_1.VOB
      Format : MPEG-PS
      File size : 1 024 MiB
      Duration : 36mn 22s
      Overall bit rate : 3 935 Kbps
   Video #224
      ID : 224 (0xE0)
      Format : MPEG Video
      Format version : Version 2
      Format profile : Main@Main
      Format settings, Matrix : Default
      Duration : 36mn 22s
      Bit rate mode : Variable
      Bit rate : 3 331 Kbps
      Nominal bit rate : 8 776 Kbps
      Width : 720 pixels
      Height : 576 pixels
      Display aspect ratio : 16:9
      Frame rate : 24.000 fps
      Standard : PAL
      Colorimetry : 4:2:0
      Scan type : Progressive
      Scan order : 2:2:2:2:2:2:2:2:2:2:2:3 Pulldown
      Bits/(Pixel*Frame) : 0.335
      Stream size : 867 MiB (85%)
   Audio #128
      ID : 128 (0x80)
      Format : AC-3
      Format/Info : Audio Coding 3
      Duration : 36mn 22s
      Bit rate mode : Constant
      Bit rate : 448 Kbps
      Channel(s) : 6 channels
      Channel positions : Front: L C R, Surround: L R, LFE
      Sampling rate : 48.0 KHz
      Stream size : 117 MiB (11%)
   Text #32
      ID : 32 (0x20)
      Format : RLE
      Format/Info : Run-length encoding

Kód: Vybrat vše

http://share-rapid.com/stahuj/h9pel8z1
http://share-rapid.com/stahuj/n5r56uaj
http://share-rapid.com/stahuj/h3ib73b3
http://share-rapid.com/stahuj/v03096y5
http://share-rapid.com/stahuj/j74jv293

Kód: Vybrat vše

http://download.hellshare.com/m-j-the-life-of-icon-brr-dvd5-czsub-icathan-part1-rar/3989180/
http://download.hellshare.com/m-j-the-life-of-icon-brr-dvd5-czsub-icathan-part2-rar/3989195/
http://download.hellshare.com/m-j-the-life-of-icon-brr-dvd5-czsub-icathan-part3-rar/3989219/
http://download.hellshare.com/m-j-the-life-of-icon-brr-dvd5-czsub-icathan-part4-rar/3989241/
http://download.hellshare.com/m-j-the-life-of-icon-brr-dvd5-czsub-icathan-part5-rar/3989251/

Nepřeji si REUPLOAD po dobu 72 hodin.......THNX!!!!!!
Obrázek....love FOREWA.....
Uživatelský avatar
RAFFAEL
Technik
Technik
Příspěvky: 375
Registrován: 17 srp 2011 14:37
Dostal poděkování: 15 poděkování

Michael Jackson: Život legendy (2011)

Příspěvek od RAFFAEL » 11 lis 2011 13:54

Michael Jackson: Život legendy
Michael Jackson: Life of an Icon, The
(2011)


Obrázek

DVD5
Audio: 5.1 English
Titulky: Czech, English
Menu: Ne
Bonus: Ne
Rozlišení: 720x576
Komprese: 57%
Velikost: 4,36 GB
Zdroj: BluRay

Dokumentární
USA, 2011, 149 min


Hrají: Michael Jackson

Obsah: Dosud nepublikované záběry a exkluzivní rozhovory s matkou Michaela a jeho sourozenci Titem a Rebbie zachycují všechny vzestupy, ale i pády krále popu. O jeho neobyčejných životních osudech vypráví ti, kteří ho znali nejlépe. Producent David Gest uvádí celovečerní portrét svého nejlepšího přítele Michaela Jacksona, na kterého nahlíží očima rodinných příslušníků, přátel a hudebních legend včetně Smokey Robinsona, Dionne Warwick, Nicka Ashforda, Valerie Simpson a spousty dalších. (oficiální text distributora)


Obrázek

Kód: Vybrat vše

http://www.csfd.cz/film/304575
Obrázek

Kód: Vybrat vše

http://sharerapid.cz/stahuj/2846767/michael-jackson-zivot-legendy-rtw-dvd5-part1.rar
http://sharerapid.cz/stahuj/2846793/michael-jackson-zivot-legendy-rtw-dvd5-part2.rar
http://sharerapid.cz/stahuj/2846821/michael-jackson-zivot-legendy-rtw-dvd5-part3.rar
http://sharerapid.cz/stahuj/2846837/michael-jackson-zivot-legendy-rtw-dvd5-part4.rar
http://sharerapid.cz/stahuj/2846840/michael-jackson-zivot-legendy-rtw-dvd5-part5.rar
Obrázek

Kód: Vybrat vše

http://download.hellshare.cz/michael-jackson-zivot-legendy-rtw-dvd5-part1-rar/3994463/
http://download.hellshare.cz/michael-jackson-zivot-legendy-rtw-dvd5-part2-rar/3994485/
http://download.hellshare.cz/michael-jackson-zivot-legendy-rtw-dvd5-part3-rar/3994510/
http://download.hellshare.cz/michael-jackson-zivot-legendy-rtw-dvd5-part4-rar/3994538/
http://download.hellshare.cz/michael-jackson-zivot-legendy-rtw-dvd5-part5-rar/3994541/
LINKY LZE KOMBINOVAT !!!
Odpovědět

Zpět na „Dokumenty“