Michael Jackson: Pod rouškou / Michael Jackson: Un... (2009)

Moderátor: KlopuX

Odpovědět
Uživatelský avatar
martanius
Palubní technik
Palubní technik
Příspěvky: 765
Registrován: 20 kvě 2009 18:46
Dostal poděkování: 24 poděkování

Michael Jackson: Pod rouškou / Michael Jackson: Un... (2009)

Příspěvek od martanius » 13 kvě 2014 21:17

Obrázek

Příběh krále popu, který se proslavil po celém světě. Jeden z nejslavnějších mužů planety má dnes přes nezpochybnitelné hudební a charitativní zásluhy pověst psychicky a zdravotně nevyrovnané trosky. Přitom ještě na počátku devadesátých let byl jeho příběh ztělesněním amerického snu. Toto je příběh chlapce z chudé rodiny, který se hudbě věnoval od osmi let, kdy hrál v sourozenecké kapele Jackson Brothers.

Kód: Vybrat vše

http://www.csfd.cz/film/262788-michael-jackson-pod-rouskou/
Zvuk: 2.0 česky, anglicky
Titulky: NE
Délka: 55 minut
Menu: ANO
Bonus: NE
DVD5

Kvalita

Obrázek

Kód: Vybrat vše

General
Complete name                            : F:\VIDEO_TS\VTS_03_1.VOB
Format                                   : MPEG-PS
File size                                : 1 024 MiB
Duration                                 : 32mn 58s
Overall bit rate mode                    : Variable
Overall bit rate                         : 4 342 Kbps

Video
ID                                       : 224 (0xE0)
Format                                   : MPEG Video
Format version                           : Version 2
Format profile                           : Main@Main
Format settings, BVOP                    : Yes
Format settings, Matrix                  : Custom
Format settings, GOP                     : M=3, N=12
Duration                                 : 32mn 58s
Bit rate mode                            : Variable
Bit rate                                 : 3 872 Kbps
Maximum bit rate                         : 7 500 Kbps
Width                                    : 720 pixels
Height                                   : 576 pixels
Display aspect ratio                     : 4:3
Frame rate                               : 25.000 fps
Standard                                 : PAL
Color space                              : YUV
Chroma subsampling                       : 4:2:0
Bit depth                                : 8 bits
Scan type                                : Interlaced
Scan order                               : Bottom Field First
Compression mode                         : Lossy
Bits/(Pixel*Frame)                       : 0.373
Time code of first frame                 : 00:00:24:14
Time code source                         : Group of pictures header
Stream size                              : 913 MiB (89%)
Color primaries                          : BT.601 PAL
Transfer characteristics                 : BT.470 System B, BT.470 System G
Matrix coefficients                      : BT.601

Audio #1
ID                                       : 189 (0xBD)-128 (0x80)
Format                                   : AC-3
Format/Info                              : Audio Coding 3
Mode extension                           : CM (complete main)
Format settings, Endianness              : Big
Muxing mode                              : DVD-Video
Duration                                 : 32mn 57s
Bit rate mode                            : Constant
Bit rate                                 : 192 Kbps
Channel(s)                               : 2 channels
Channel positions                        : Front: L R
Sampling rate                            : 48.0 KHz
Bit depth                                : 16 bits
Compression mode                         : Lossy
Stream size                              : 45.3 MiB (4%)

Audio #2
ID                                       : 189 (0xBD)-129 (0x81)
Format                                   : AC-3
Format/Info                              : Audio Coding 3
Mode extension                           : CM (complete main)
Format settings, Endianness              : Big
Muxing mode                              : DVD-Video
Duration                                 : 32mn 57s
Bit rate mode                            : Constant
Bit rate                                 : 192 Kbps
Channel(s)                               : 2 channels
Channel positions                        : Front: L R
Sampling rate                            : 48.0 KHz
Bit depth                                : 16 bits
Compression mode                         : Lossy
Stream size                              : 45.3 MiB (4%)

Text #1
ID                                       : 189 (0xBD)-32 (0x20)
Format                                   : RLE
Format/Info                              : Run-length encoding
Muxing mode                              : DVD-Video
Delay relative to video                  : 80ms

Text #2
ID                                       : 189 (0xBD)-33 (0x21)
Format                                   : RLE
Format/Info                              : Run-length encoding
Muxing mode                              : DVD-Video
Delay relative to video                  : 80ms

Menu

Download

Kód: Vybrat vše

http://www.sharerapid.cz/soubor/88757/mjskutecnypribeh-dvd-part1_rar
http://www.sharerapid.cz/soubor/88752/mjskutecnypribeh-dvd-part2_rar  
Mé DVD uploady jsou čisté kopie originálů, bez komprese.
Odpovědět

Zpět na „Dokumenty“